<?xml version="1.0" standalone="no"?>
<!DOCTYPE svg PUBLIC "-//W3C//DTD SVG 1.1//EN" "http://www.w3.org/Graphics/SVG/1.1/DTD/svg11.dtd">
<svg xmlns="http://www.w3.org/2000/svg">
<metadata>Copyright (C) 2020 by original authors @ fontello.com</metadata>
<defs>
<font id="kfx" horiz-adv-x="1000" >
<font-face font-family="kfx" font-weight="400" font-stretch="normal" units-per-em="1000" ascent="850" descent="-150" />
<missing-glyph horiz-adv-x="1000" />
<glyph glyph-name="ico-arrow" unicode="&#xe800;" d="M930 420l-430-431-430 431" horiz-adv-x="1000" />

<glyph glyph-name="ico-arrow-down" unicode="&#xe801;" d="M1431 850l-620-618-620 618-191-190 811-810 811 810z" horiz-adv-x="1622" />

<glyph glyph-name="ico-bar" unicode="&#xe802;" d="M1000 739v111h-1000v-111l444-500v-278h-277v-111h666v111h-277v278z m-754-111l-98 111h705l-99-111z" horiz-adv-x="1000" />

<glyph glyph-name="ico-building" unicode="&#xe803;" d="M796 480h260v-612h-260z m-740 0h259v-612h-259z m814 277v75h-629v-75h629z m-388-666h74v-223h-74z m74 0h74v-223h-74z m518-204v593a19 19 0 0 1-18 18h-241v241h55a19 19 0 0 1 19 18v75a19 19 0 0 1-19 18h-629a19 19 0 0 1-19-18v-75a19 19 0 0 1 19-18h55v-241h-240a19 19 0 0 1-19-18v-593h-37v-37h1111v37z m-815 926h593v-37h-593z m-185-352h222v-574h-222z m259 19v259h445v-852h-130v204a19 19 0 0 1-18 18h-148a19 19 0 0 1-19-18v-204h-130z m167-408h37v-185h-37z m74-185v185h37v-185z m241 0v574h222v-574z m-445 815h37v-37h-37z m112 0h37v-37h-37z m-56 0h37v-37h-37z m111 0h37v-37h-37z m56 0h37v-37h-37z m55 0h37v-37h-37z m56 0h37v-37h-37z m-334-74h37v-37h-37z m112 0h37v-37h-37z m-56 0h37v-37h-37z m111 0h37v-37h-37z m56 0h37v-37h-37z m55 0h37v-37h-37z m56 0h37v-37h-37z m-334-74h37v-37h-37z m112 0h37v-37h-37z m-56 0h37v-37h-37z m111 0h37v-37h-37z m56 0h37v-37h-37z m55 0h37v-37h-37z m56 0h37v-37h-37z m-334-74h37v-37h-37z m112 0h37v-37h-37z m-56 0h37v-37h-37z m111 0h37v-37h-37z m56 0h37v-37h-37z m55 0h37v-37h-37z m56 0h37v-37h-37z m-334-74h37v-37h-37z m112 0h37v-37h-37z m-56 0h37v-37h-37z m111 0h37v-37h-37z m56 0h37v-37h-37z m55 0h37v-37h-37z m56 0h37v-37h-37z m-334-74h37v-38h-37z m112 0h37v-38h-37z m-56 0h37v-38h-37z m111 0h37v-38h-37z m56 0h37v-38h-37z m55 0h37v-38h-37z m56 0h37v-38h-37z m-334-75h37v-37h-37z m112 0h37v-37h-37z m-56 0h37v-37h-37z m111 0h37v-37h-37z m56 0h37v-37h-37z m55 0h37v-37h-37z m56 0h37v-37h-37z m-334-74h37v-37h-37z m112 0h37v-37h-37z m-56 0h37v-37h-37z m111 0h37v-37h-37z m56 0h37v-37h-37z m55 0h37v-37h-37z m56 0h37v-37h-37z m-593 241h148v-37h-148z m0-74h148v-37h-148z m0-74h148v-37h-148z m0-74h148v-37h-148z m0-74h148v-37h-148z m0-74h148v-37h-148z m0-74h148v-37h-148z m741 444h148v-37h-148z m0-74h148v-37h-148z m0-74h148v-37h-148z m0-74h148v-37h-148z m0-74h148v-37h-148z m0-74h148v-37h-148z m0-74h148v-37h-148z" horiz-adv-x="1111" />

<glyph glyph-name="ico-calendar" unicode="&#xe804;" d="M818 759h-45v91h-91v-91h-455v91h-91v-91h-45a91 91 0 0 1-91-91v-727a91 91 0 0 1 91-91h727a91 91 0 0 1 91 91v727a91 91 0 0 1-91 91z m0-818h-727v591h727z" horiz-adv-x="909" />

<glyph glyph-name="ico-conference" unicode="&#xe805;" d="M283-67a100 100 0 0 1-100 100v43a67 67 0 0 1 34 57v34a67 67 0 0 1-134 0v-34a67 67 0 0 1 34-57v-43a100 100 0 0 1-100-100v-66h266z m600 100v43a67 67 0 0 1 34 57v34a67 67 0 1 1-134 0v-34a67 67 0 0 1 34-57v-43a100 100 0 0 1-100-100v-66h266v66a100 100 0 0 1-100 100z m-683 400l-33-33-34 33 17 134-17 66a100 100 0 0 1-100-100v-166h267v200h150v66h-233v-1a100 100 0 0 1-17 1l-17-66z m467 84h66v-100h-66z m-467-468v18a82 82 0 0 1 33 66v34a83 83 0 1 1-166 0v-34a82 82 0 0 1 33-66v-18a117 117 0 0 1-100-116v-66a17 17 0 0 1 17-17h266a17 17 0 0 1 17 17v66a117 117 0 0 1-100 116z m67-166h-234v50a83 83 0 0 0 84 84 17 17 0 0 1 16 16v43a17 17 0 0 1-8 14 50 50 0 0 0-25 43v34a50 50 0 1 0 100 0v-34a50 50 0 0 0-25-43 17 17 0 0 1-8-14v-43a17 17 0 0 1 17-16 83 83 0 0 0 83-84z m633 166v18a82 82 0 0 1 33 66v34a83 83 0 0 1-166 0v-34a82 82 0 0 1 33-66v-18a117 117 0 0 1-100-116v-66a17 17 0 0 1 17-17h266a17 17 0 0 1 17 17v66a117 117 0 0 1-100 116z m67-166h-234v50a83 83 0 0 0 84 84 17 17 0 0 1 16 16v43a17 17 0 0 1-8 14 50 50 0 0 0-25 43v34a50 50 0 1 0 100 0v-34a50 50 0 0 0-25-43 17 17 0 0 1-8-14v-43a17 17 0 0 1 16-16 83 83 0 0 0 84-84z m-650 484v183h133a17 17 0 0 1 17 17v66a17 17 0 0 1-17 17h-233v17a82 82 0 0 1 33 66v34a83 83 0 1 1-167 0v-34a82 82 0 0 1 34-66v-18a117 117 0 0 1-100-116v-166a17 17 0 0 1 16-17h267a17 17 0 0 1 17 17z m-200 400a50 50 0 1 0 100 0v-34a50 50 0 0 0-25-43 17 17 0 0 1-9-14v-26h-33v26a17 17 0 0 1-8 14 50 50 0 0 0-25 43z m66-328l-16-15-16 15 14 111h4z m-28 178h24l-9-34h-7z m128-50v-184h-233v150a83 83 0 0 0 71 82l12-49-16-131a17 17 0 0 1 5-13l33-34a17 17 0 0 1 24 0l33 34a17 17 0 0 1 5 13l-17 131 13 50a5 5 0 0 0 1 0 15 15 0 0 1 9 1h210v-33h-133a17 17 0 0 1-17-17z m384-200h-334a17 17 0 0 1-16-16l-17-400a17 17 0 0 1 16-18h367a17 17 0 0 1 17 17v1l-17 400a17 17 0 0 1-16 16z m-333-400l15 366h302l15-366z m199 533h117v-67h-33v-33h166v33h-33v67h117a33 33 0 0 1 33 33v200a33 33 0 0 1-33 34h-334a33 33 0 0 1-33-34v-200a33 33 0 0 1 33-33z m184-67h-34v67h34z m-184 300h334v-200h-334z m84-100h33v-66h-33z m66 34h34v-100h-34z m67 33h33v-133h-33z" horiz-adv-x="1000" />

<glyph glyph-name="ico-conference-hall" unicode="&#xe806;" d="M17 317l16-217h200l17 217a417 417 0 0 1-233 0z m16-217h200v-67h-200z m300 217l17-217h200l17 217a417 417 0 0 1-234 0z m17-217h200v-67h-200z m300 217l17-217h200l16 217a417 417 0 0 1-233 0z m17-217h200v-67h-200z m-267 400h100v-100h-100z m121 237a100 100 0 1 1 29-70 100 100 0 0 1-29 70z m-267-404a433 433 0 0 1-241 0 17 17 0 0 1-13-18l17-216v-249h33v167h167v-167h33v249l17 216a17 17 0 0 1-13 18z m-121-16a525 525 0 0 0 99-13l-14-187h-169l-15 187a525 525 0 0 0 99 13z m-83-234h167v-33h-167z m521 250a433 433 0 0 1-242 0 17 17 0 0 1-12-18l16-216v-249h34v167h166v-167h34v249l16 216a17 17 0 0 1-12 18z m-121-16a525 525 0 0 0 99-13l-14-187h-169l-15 187a525 525 0 0 0 99 13z m-83-234h166v-33h-166z m533 232a17 17 0 0 1-12 18 433 433 0 0 1-242 0 17 17 0 0 1-13-18l17-216v-249h33v167h167v-167h33v249z m-133 2a525 525 0 0 0 99-13l-15-187h-169l-14 187a525 525 0 0 0 99 13z m-84-234h167v-33h-167z m-166 400h200a17 17 0 0 1 16 17v333a17 17 0 0 1-16 17h-534a17 17 0 0 1-16-17v-333a17 17 0 0 1 16-17h200v-66h-66v-34h266v34h-66z m-317 334h500v-300h-500z m217-400v66h66v-66z m33 133a116 116 0 0 1 93 186l14 14h26v33h-33a17 17 0 0 1-12-5l-18-18a116 116 0 0 1-170-153l-23-24h-27v-33h33a17 17 0 0 1 12 5l26 26a116 116 0 0 1 79-31z m62 155l8 8a83 83 0 0 0 12-30h-65v65a83 83 0 0 0 29-12l-8-7z m-145-38a84 84 0 0 0 66 81v-81a17 17 0 0 1 17-17h82a83 83 0 0 0-137-45l17 17-24 23-13-13a82 82 0 0 0-8 35z m250 116h33v-33h-33z m-384-200h34v-33h-34z" horiz-adv-x="900" />

<glyph glyph-name="ico-down" unicode="&#xe807;" d="M499-150l118 117-381 383 381 383-118 117-499-500z" horiz-adv-x="617" />

<glyph glyph-name="ico-fb" unicode="&#xe808;" d="M337-150v456h153l23 178h-176v113c0 52 14 87 88 87h94v159a1276 1276 0 0 1-137 7 214 214 0 0 1-228-235v-131h-154v-178h154v-456z" horiz-adv-x="519" />

<glyph glyph-name="ico-fitness" unicode="&#xe809;" d="M929 207l71 72-71 71-179-178-428 428 178 179-71 71-72-71-71 71-107-107-72 72-71-72 71-71-107-107 72-72-72-71 72-72 178 179 429-429-179-179 72-71 71 71 72-71 107 107 71-72 72 72-72 72 107 107z" horiz-adv-x="1000" />

<glyph glyph-name="ico-globe" unicode="&#xe80a;" d="M20 427a406 406 0 0 1 7-77l146-96 20-96h38l39 57v96l115 77v58l-58 58 58 57v77l-58 77-114 56a403 403 0 0 1-193-344z m838-451l95-95a39 39 0 0 1 55 54l-95 96a39 39 0 0 1-55-55z m-323 356a154 154 0 0 1-28-142l37 11a115 115 0 0 0 21 106z m486-383l-95 95a59 59 0 0 1-65 11l-44 44a212 212 0 0 1 20 241 424 424 0 1 1-254-305 211 211 0 0 1 207 37l44-44a57 57 0 0 1 11-66l95-95a58 58 0 0 1 82 81l-1 1z m-217 435c-2 2-4 4-7 6l10 10c0-6-1-12-1-18-1 1-2 2-2 2z m3 71l-40-42a212 212 0 0 1-188 19l-2 2v108a19 19 0 0 1-5 14l-33 33v45l65 132a385 385 0 0 0 203-311z m-593 294l101-49 51-68v-63l-52-52a19 19 0 0 1 0-27l52-52v-39l-107-71a19 19 0 0 1-9-17v-90l-29-44h-13l-16 81a19 19 0 0 1-8 12l-139 91a380 380 0 0 0 169 388z m209-707a385 385 0 0 0-365 264l98-64 18-88a19 19 0 0 1 19-16h38a19 19 0 0 1 16 9l38 58a19 19 0 0 1 4 10v86l107 71a19 19 0 0 1 8 16v58a19 19 0 0 1-5 14l-45 44 45 44a19 19 0 0 1 5 14v76a19 19 0 0 1-4 12l-57 77a19 19 0 0 1-7 6l-81 39a381 381 0 0 0 314 11l-67-136a19 19 0 0 1-2-9v-57a19 19 0 0 1 6-14l33-33v-107a19 19 0 0 1 4-12l0-1a211 211 0 0 1-7-355 383 383 0 0 0-113-17z m109 70a173 173 0 1 0 245 0 173 173 0 0 0-245 0z m462-218a20 20 0 0 0-27 0l-95 96a19 19 0 0 0 27 27l95-95a19 19 0 0 0 0-28z" horiz-adv-x="1039" />

<glyph glyph-name="ico-go-up" unicode="&#xe80b;" d="M0 350l88-88 350 349v-761h125v761l348-350 89 89-500 500z" horiz-adv-x="1000" />

<glyph glyph-name="ico-group" unicode="&#xe80c;" d="M250 250l83 83v-111a115 115 0 0 1-31-22h-285v107a100 100 0 0 0 73 96l43 12v-48z m500 0l117 117v48l43-11a100 100 0 0 0 73-97v-107h-285a115 115 0 0 1-31 22v112z m-17-383h-466v107a100 100 0 0 0 27 68 99 99 0 0 0 46 28l43 12v-49l117-116 117 116v49l43-12a99 99 0 0 0 46-28 100 100 0 0 0 28-68z m-35 333a115 115 0 0 1-31 22v111a167 167 0 0 1-285 118 159 159 0 0 1-25-33 166 166 0 0 1-24-85v-111a116 116 0 0 1-39-180 99 99 0 0 0 46 28l44 12 44 12 22 6v43a135 135 0 0 0-44 29 126 126 0 0 0-21 28 131 131 0 0 0-18 67v33h48a166 166 0 0 1 68 15 164 164 0 0 1 39 25c4 3 7 6 10 9l18 18 15-30a67 67 0 0 1 60-37h8v-33a131 131 0 0 0-17-67 132 132 0 0 0-66-57v-43l23-6 44-12 43-12a99 99 0 0 0 46-28 116 116 0 0 1-8 158z m202 483v-50h-5a90 90 0 0 0-11 1 100 100 0 0 0-78 55l-6 11-28-28a133 133 0 0 0-94-39h-78v50a150 150 0 1 0 300 0z m-500 0v-50h-5a90 90 0 0 0-11 1 100 100 0 0 0-78 55l-6 11-28-28a133 133 0 0 0-94-39h-78v50a150 150 0 1 0 300 0z m514-263l-97 26v20a150 150 0 0 1 83 134v17a17 17 0 0 1 17 16v50a167 167 0 0 1-334 0v-50a17 17 0 0 1 17-16v-17a150 150 0 0 1 83-134v-20l-32-9a183 183 0 0 1-302 0l-32 9v20a150 150 0 0 1 83 134v17a17 17 0 0 1 17 16v50a167 167 0 1 1-334 0v-50a17 17 0 0 1 17-16v-17a150 150 0 0 1 83-134v-20l-97-26a117 117 0 0 1-86-113v-107a17 17 0 0 1 17-17h251a134 134 0 0 1 5-140 116 116 0 0 1-23-69v-107a17 17 0 0 1 17-17h466a17 17 0 0 1 17 17v107a116 116 0 0 1-23 69 134 134 0 0 1 5 140h251a17 17 0 0 1 17 17v107a117 117 0 0 1-86 113z m-297 263a133 133 0 0 0 266 0v-32a83 83 0 0 0-62 45l-6 12a17 17 0 0 1-27 4l-27-28a116 116 0 0 0-83-34h-61z m16-83v17h45a149 149 0 0 1 106 44l12 11a116 116 0 0 1 71-52v-20a117 117 0 1 0-234 0z m117-150a150 150 0 0 1 33 4v-21a17 17 0 0 1 6-12l-39-33-39 33a17 17 0 0 1 6 12v21a150 150 0 0 1 33-4z m-77-41l60-50v-42h34v42l60 50 23-6v-29l-100-100-67 67a182 182 0 0 1-15 66z m-9-323l-97 27v20a150 150 0 0 1 83 134v-45a17 17 0 0 1 10-15 100 100 0 0 0 47-133q-2-4-4-7a116 116 0 0 1-39 19z m-367-19a100 100 0 0 0 36 136q4 2 8 4a17 17 0 0 1 9 15v45a150 150 0 0 1 83-134v-20l-97-27a116 116 0 0 1-39-19z m242 21l-39-33-39 33a17 17 0 0 1 6 12v21a146 146 0 0 1 66 0v-21a17 17 0 0 1 6-12z m-39 62a117 117 0 0 0-117 117v17h31a182 182 0 0 1 130 53l2 2 4-9a83 83 0 0 1 67-46v-17a117 117 0 0 0-117-117z m-100-81l23 7 60-50v-43h34v43l60 50 23-7v-29l-100-100-100 100z m-6 371a150 150 0 0 0 256-107v-33a17 17 0 0 1-17 17h-8a50 50 0 0 0-45 27l-15 30a17 17 0 0 1-27 5l-17-18a149 149 0 0 0-107-44h-47a17 17 0 0 1-17-17v34a149 149 0 0 0 44 106z m-77-99l-67-67-100 100v29l23 6 60-50v-42h34v42l60 50 5-2a182 182 0 0 1-15-66z m-200 342a133 133 0 1 0 266 0v-32a83 83 0 0 0-62 45l-6 12a17 17 0 0 1-27 4l-27-28a116 116 0 0 0-83-34h-61z m16-83v17h45a149 149 0 0 1 106 44l12 11a116 116 0 0 1 71-52v-20a117 117 0 1 0-234 0z m117-150a150 150 0 0 1 33 4v-21a17 17 0 0 1 6-12l-39-33-39 33a17 17 0 0 1 6 12v21a149 149 0 0 1 33-4z m-217-143a84 84 0 0 0 62 81l22 5v-26a17 17 0 0 1 5-12l116-117a17 17 0 0 1 24 0l55 55v-61a133 133 0 0 1-22-15h-262z m684-424h-434v91a84 84 0 0 0 62 80l22 6v-27a17 17 0 0 1 5-11l116-117a17 17 0 0 1 24 0l117 117a17 17 0 0 1 4 11v27l22-6a84 84 0 0 0 62-80z m250 334h-262a133 133 0 0 1-22 15v61l55-55a17 17 0 0 1 24 0l116 117a17 17 0 0 1 5 12v26l22-6a84 84 0 0 0 62-80z" horiz-adv-x="1000" />

<glyph glyph-name="ico-hotel" unicode="&#xe80d;" d="M782 433h200v-566h-200z m34 166v-100h-211a182 182 0 0 1 71 100z m-34-166v-566h-166v199h-233v-199h-167v632h178a183 183 0 0 1 211 0h177z m-83-300v100h-399v-100z m0 167v99h-399v-99z m-100 332v-33h-199v67h166a33 33 0 0 0 33-34z m-133 50v-16h-66v16a33 33 0 0 0 66 0z m-72-183h-211v100h140a182 182 0 0 1 71-100z m-377-66h199v-566h-199z m965 16h-183v34h17a17 17 0 0 1 16 16v100a17 17 0 0 1-16 17h-120a200 200 0 1 1-393 0h-120a17 17 0 0 1-17-17v-100a17 17 0 0 1 17-16h17v-34h-183a17 17 0 0 1-17-16v-566a17 17 0 0 1 17-17h965a17 17 0 0 1 17 17v566a17 17 0 0 1-17 16z m-782-566h-167v533h167z m299 933a167 167 0 1 0-166-167 167 167 0 0 0 166 167z m-299-300v66h111a200 200 0 0 1 40-66z m283-633h-83v167h83z m116 0h-83v167h83z m167 0h-133v183a17 17 0 0 1-17 17h-233a17 17 0 0 1-17-17v-183h-133v600h156a199 199 0 0 1 221 0h156z m-118 633a200 200 0 0 1 40 66h111v-66z m318-633h-167v533h167z m-400 799h-83a50 50 0 0 1-67 47v20h-33v-200h33v33h167v-33h33v83a50 50 0 0 1-50 50z m-133 17a17 17 0 0 0 17-17h-34a17 17 0 0 0 17 17z m150-83h-167v33h150a17 17 0 0 0 17-17z m116-500a17 17 0 0 1 17 17v100a17 17 0 0 1-17 17h-399a17 17 0 0 1-17-17v-100a17 17 0 0 1 17-17z m-216 34h-67v66h67z m33 66h67v-66h-67z m167-66h-67v66h67z m-367 66h67v-66h-67z m-16 67h399a17 17 0 0 1 17 17v99a17 17 0 0 1-17 17h-399a17 17 0 0 1-17-17v-99a17 17 0 0 1 17-17z m183 33h-67v67h67z m33 67h67v-67h-67z m167-67h-67v67h67z m-367 67h67v-67h-67z m516-17h100v-33h-100z m0-66h100v-34h-100z m0-67h100v-33h-100z m0-67h100v-33h-100z m0-66h100v-34h-100z m0-67h100v-33h-100z m-765 333h100v-33h-100z m0-66h100v-34h-100z m0-67h100v-33h-100z m0-67h100v-33h-100z m0-66h100v-34h-100z m0-67h100v-33h-100z" horiz-adv-x="999" />

<glyph glyph-name="ico-left" unicode="&#xe80e;" d="M617 733l-118 117-499-500 499-500 118 117-381 383z" horiz-adv-x="617" />

<glyph glyph-name="ico-lindekin" unicode="&#xe80f;" d="M127 850a117 117 0 1 1-3-233h1a117 117 0 1 1 2 233z m-114-325h225v-675h-225z m775 16a281 281 0 0 1-202-114v98h-224v-675h224v377a154 154 0 0 0 7 55 123 123 0 0 0 115 82c81 0 114-62 114-153v-361h224v387c0 207-110 304-258 304z" horiz-adv-x="1046" />

<glyph glyph-name="ico-mail" unicode="&#xe811;" d="M1125 850h-1000a125 125 0 0 1-124-125l-1-750a125 125 0 0 1 125-125h1000a125 125 0 0 1 125 125v750a125 125 0 0 1-125 125z m0-250l-500-312-500 312v125l500-312 500 312z" horiz-adv-x="1250" />

<glyph glyph-name="ico-meeting" unicode="&#xe812;" d="M283 100v43a67 67 0 0 1 34 57v33a67 67 0 1 1-134 0v-33a67 67 0 0 1 34-57v-43a100 100 0 0 1-94-67 97 97 0 0 1-6-33v-133h266v133a97 97 0 0 1-6 33 100 100 0 0 1-94 67z m484 0v43a67 67 0 0 1 33 57v33a67 67 0 1 1-133 0v-33a67 67 0 0 1 33-57v-43a100 100 0 0 1-100-100v-133h267v133a100 100 0 0 1-100 100z m100 433a100 100 0 0 1-100 100v43a67 67 0 0 1 33 57v34a67 67 0 1 1-133 0v-34a67 67 0 0 1 33-57v-43a100 100 0 0 1-100-100v-66h267z m-467 0a100 100 0 0 1-100 100v43a67 67 0 0 1 33 57v34a67 67 0 1 1-133 0v-34a67 67 0 0 1 33-57v-43a100 100 0 0 1-100-100v-66h267z m533-64a17 17 0 0 1-16 14h-34v50a117 117 0 0 1-100 116v18a82 82 0 0 1 34 66v34a83 83 0 0 1-167 0v-34a82 82 0 0 1 33-66v-18a117 117 0 0 1-100-116v-50h-166v50a117 117 0 0 1-100 116v18a82 82 0 0 1 33 66v34a83 83 0 0 1-167 0v-34a82 82 0 0 1 34-66v-18a117 117 0 0 1-100-116v-50h-34a17 17 0 0 1-16-14l-67-433a17 17 0 0 1 17-19h84a114 114 0 0 1-1-17v-133a17 17 0 0 1 17-17h266a17 17 0 0 1 17 17v133a114 114 0 0 1-1 17h186a115 115 0 0 1-2-17v-133a17 17 0 0 1 17-17h267a17 17 0 0 1 16 17v133a116 116 0 0 1-1 17h101a17 17 0 0 1 17 16 16 16 0 0 1 0 3z m-316 64a84 84 0 0 0 83 84 17 17 0 0 1 17 16v43a17 17 0 0 1-8 14 50 50 0 0 0-26 44v33a50 50 0 1 0 100 0v-34a50 50 0 0 0-25-43 17 17 0 0 1-8-14v-43a17 17 0 0 1 17-16 84 84 0 0 0 83-84v-50h-233z m-467 0a84 84 0 0 0 83 84 17 17 0 0 1 17 16v43a17 17 0 0 1-8 14 50 50 0 0 0-25 44v33a50 50 0 0 0 100 0v-34a50 50 0 0 0-25-43 17 17 0 0 1-8-14v-43a17 17 0 0 1 16-16 84 84 0 0 0 84-84v-50h-234z m217-650h-234v117a81 81 0 0 0 5 28v0a83 83 0 0 0 79 56 17 17 0 0 1 16 16v43a17 17 0 0 1-8 14 50 50 0 0 0-25 43v33a50 50 0 1 0 100 0v-33a50 50 0 0 0-25-43 17 17 0 0 1-8-15v-42a17 17 0 0 1 16-17 83 83 0 0 0 79-55v0a81 81 0 0 0 5-28z m483 0h-233v117a83 83 0 0 0 83 83 17 17 0 0 1 17 17v43a17 17 0 0 1-8 14 50 50 0 0 0-26 43v33a50 50 0 1 0 100 0v-33a50 50 0 0 0-25-43 17 17 0 0 1-8-15v-42a17 17 0 0 1 17-17 83 83 0 0 0 83-83v-117z m22 167a117 117 0 0 1-89 66v18a82 82 0 0 1 34 66v33a83 83 0 1 1-167 0v-33a82 82 0 0 1 33-66v-18a117 117 0 0 1-88-66h-206a116 116 0 0 1-89 66v18a82 82 0 0 1 33 66v33a83 83 0 1 1-166 0v-33a82 82 0 0 1 33-66v-18a116 116 0 0 1-89-66h-75l62 400h804l62-400z" horiz-adv-x="1000" />

<glyph glyph-name="ico-non-smoking" unicode="&#xe813;" d="M0 660l329-333h-329v-143h470l330-334 59 59-800 810z m871-333h70v-143h-70z m-118 0h71v-143h-71z m40 386a159 159 0 0 1 47 114h-71a88 88 0 0 0-87-89v-71a190 190 0 0 0 189-194v-99h70v99a265 265 0 0 1-148 240z m-205-182h72a91 91 0 0 0 93-98v-59h71v76a157 157 0 0 1-164 150h-72a94 94 0 0 0-87 95 84 84 0 0 0 87 84v71a160 160 0 0 1 0-319z m118-344v140h-138z" horiz-adv-x="941" />

<glyph glyph-name="ico-party" unicode="&#xe815;" d="M765 692a166 166 0 0 0 99-213c-31-85-130-176-212-166a93 93 0 0 0-43 15c-40 26-62 81-69 139a285 285 0 0 1 90 201c0 4 0 9-1 13a165 165 0 0 0 136 11z m47-439a66 66 0 0 0 0-132 66 66 0 0 0 0 132z m-160 60l-14-69-32 12-31 11 34 61a93 93 0 0 1 43-15z m-165 126l10-70h-66l10 70a93 93 0 0 1 46 0z m-81 15c4-76-19-158-70-192a93 93 0 0 0-43-15c-82-10-181 81-213 166a166 166 0 0 0 223 208 267 267 0 0 1 103-168z m223 227a166 166 0 0 1-331-13 230 230 0 0 1 5-47 267 267 0 0 1 103-167 119 119 0 0 1 35-16 93 93 0 0 1 46 0 127 127 0 0 1 53 29 285 285 0 0 1 90 201c0 4 0 9-1 13z m-293-419l33-61-31-12-31-11-14 69a93 93 0 0 1 43 15z m-154-207a66 66 0 0 0 0-133 66 66 0 0 0 0 133z m-99 778a65 65 0 0 1 66-66 66 66 0 0 0-132 0 65 65 0 0 1 66 66z m797-359a182 182 0 0 1-238 231 182 182 0 0 1-360-37 221 221 0 0 1 1-22 181 181 0 0 1-109-5 183 183 0 0 1-109-234c29-81 125-177 215-178l11-54a17 17 0 0 1 16-13 16 16 0 0 1 6 1l15 5 121-318 15 6 16-6 137 384 15-5a16 16 0 0 1 6-1 17 17 0 0 1 16 13l11 55c90 1 185 96 215 178z m-120 202a150 150 0 0 0 89-191c-33-89-140-178-214-151-46 16-70 75-78 127a311 311 0 0 1 89 207c0 1 0 2 0 3a149 149 0 0 0 114 5z m-296 141a149 149 0 0 0 149-149c0-95-70-216-149-216s-149 121-149 216a149 149 0 0 0 149 149z m14-431h-28l5 34c3 0 6-1 9-1s6 1 9 1z m-382 33a150 150 0 0 0 89 191 148 148 0 0 0 104-1 291 291 0 0 1 101-164c2-74-24-157-80-178-74-27-181 62-214 152z m217-186c2 1 5 2 8 3s5 2 8 4l16-30-26-10z m71-24l-27 48a197 197 0 0 1 58 108 16 16 0 0 1 3-6 17 17 0 0 1 13-6h16v-406l-88 233 16 5a17 17 0 0 1 10 21 19 19 0 0 1-1 3z m97-257v401h16a17 17 0 0 1 17 16 18 18 0 0 1-1 3l-8 55a139 139 0 0 1 23 11 200 200 0 0 1 59-114l-26-49a17 17 0 0 1 6-22 17 17 0 0 1 3-1l15-6z m118 324l16 30a78 78 0 0 1 8-4c3 0 6-1 9-2l-7-33z m279-72a47 47 0 0 0-49 44 47 47 0 0 0 0 5v1a17 17 0 0 1-34 0 47 47 0 0 0-49-50h0a17 17 0 1 1 0-33 47 47 0 0 0 49-45 48 48 0 0 0 0-5v0a17 17 0 0 1 34 0 47 47 0 0 0 49 50h1a17 17 0 1 1-1 33z m-66-31a14 14 0 1 0 0 28 14 14 0 1 0 0-28z m-563-168a47 47 0 0 0-50 45 42 42 0 0 0 0 5v0a17 17 0 0 1-33 0 47 47 0 0 0-45-50 46 46 0 0 0-5 0h0a17 17 0 0 1 0-33 47 47 0 0 0 50-45 48 48 0 0 0 0-5v0a17 17 0 0 1 33 0 47 47 0 0 0 50 50h0a17 17 0 0 1 0 33z m-66-31a14 14 0 0 0-1 29 14 14 0 0 0 1-29z m-117 727v0a17 17 0 0 1 34 0 47 47 0 0 0 44 50 46 46 0 0 0 5 0h1a17 17 0 0 1-1 33 47 47 0 0 0-49 44 50 50 0 0 0 0 5v1a17 17 0 0 1-34-1 47 47 0 0 0-49-49h0a17 17 0 0 1 0-33 47 47 0 0 0 49-45 48 48 0 0 0 0-5z m17 80a73 73 0 0 1 14-14 14 14 0 1 0-28 0 73 73 0 0 1 14 14z" horiz-adv-x="895" />

<glyph glyph-name="ico-people" unicode="&#xe816;" d="M979 279a291 291 0 0 0 146-241v-188h250v188c0 136-223 216-396 241z m-104 71a250 250 0 0 1 0 500 261 261 0 0 1-83-15 374 374 0 0 0 0-470 261 261 0 0 1 83-15z m-375-62c-167 0-500-84-500-250v-188h1000v188c0 166-333 250-500 250z" horiz-adv-x="1375" />

<glyph glyph-name="ico-pet" unicode="&#xe817;" d="M786 226c-46 54-84 99-130 153a223 223 0 0 1-92 70 107 107 0 0 1-18 4 265 265 0 0 1-41 2 221 221 0 0 1-41-2 107 107 0 0 1-18-5 227 227 0 0 1-92-69c-46-54-84-100-130-154-69-69-154-145-138-252a165 165 0 0 1 122-122c39-8 162 23 292 23h9c131 0 254-30 292-23a166 166 0 0 1 123 122c16 108-69 184-138 253z" horiz-adv-x="1010" />

<glyph glyph-name="ico-phone" unicode="&#xe818;" d="M201 417a842 842 0 0 1 366-366l122 122a55 55 0 0 0 57 14 634 634 0 0 1 198-32 56 56 0 0 0 56-56v-193a56 56 0 0 0-56-56 944 944 0 0 0-944 944 56 56 0 0 0 56 56h194a56 56 0 0 0 56-56 631 631 0 0 1 31-198 56 56 0 0 0-14-57z" horiz-adv-x="1000" />

<glyph glyph-name="ico-pin" unicode="&#xe819;" d="M50-50h600a50 50 0 1 0 0-100h-600a50 50 0 0 0 0 100z m300 650a100 100 0 1 1 100-100 100 100 0 0 1-100 100z m0 250a348 348 0 0 0 350-357c0-149-106-306-319-470a50 50 0 0 0-61 0q-320 246-320 470a348 348 0 0 0 350 357z" horiz-adv-x="700" />

<glyph glyph-name="ico-right" unicode="&#xe81b;" d="M117 850l-117-117 381-383-381-383 117-117 500 500z" horiz-adv-x="617" />

<glyph glyph-name="ico-room" unicode="&#xe81c;" d="M927-5h146v-127h-146z m146 128v-128h-146v128h146z m-37 182l37-109h-146l37 109z m-800-328h619v-109h-619z m546 819v-110a37 37 0 0 0-36-36h-37v73h-327v-73h-36a37 37 0 0 0-37 36v110a37 37 0 0 0 37 36h399a37 37 0 0 0 37-36z m-764-801h146v-127h-146z m146 128v-128h-146v128h146z m-37 182l37-109h-146l37 109z m691-164v164a127 127 0 0 1-127 127h-291a127 127 0 0 1-127-127v-164a55 55 0 0 1-55-55v-218a18 18 0 0 1 18-18h619a18 18 0 0 1 18 18v218a55 55 0 0 1-55 55z m-509 164a91 91 0 0 0 91 90h291a91 91 0 0 0 91-90v-164h-40a55 55 0 0 1 3 18v36a55 55 0 0 1-54 55h-73a55 55 0 0 1-54-55v-36a55 55 0 0 1 3-18h-43a55 55 0 0 1 3 18v36a55 55 0 0 1-54 55h-73a55 55 0 0 1-54-55v-36a55 55 0 0 1 3-18h-40z m400-110v-36a18 18 0 0 0-18-18h-73a18 18 0 0 0-18 18v36a18 18 0 0 0 18 19h73a18 18 0 0 0 18-18z m-218 0v-36a18 18 0 0 0-18-18h-73a18 18 0 0 0-18 18v36a18 18 0 0 0 18 19h73a18 18 0 0 0 18-18z m345-309h-581v73h581z m0 109h-581v91a18 18 0 0 0 18 19h545a18 18 0 0 0 18-19z m-91 855h-400a55 55 0 0 1-54-54v-110a55 55 0 0 1 54-54h400a55 55 0 0 1 55 54v110a55 55 0 0 1-55 54z m-54-182h-291v37h291z m73 18a18 18 0 0 0-18-18h-19v55a18 18 0 0 1-18 18h-327a18 18 0 0 1-18-18v-55h-18a18 18 0 0 0-19 18v109a18 18 0 0 0 19 19h400a18 18 0 0 0 18-19z m-164-91a91 91 0 0 1 91-90v36a55 55 0 0 0-55 54z m-200-54v-36a91 91 0 0 1 91 90h-36a55 55 0 0 0-55-54z m127 54h37v-90h-37z m-363-454h-55v36h55a18 18 0 0 1 14 8 18 18 0 0 1 3 16l-36 109a18 18 0 0 1-18 13h-72a18 18 0 0 1-18-13l-36-109a18 18 0 0 1 3-16 18 18 0 0 1 14-8h55v-36h-55a18 18 0 0 1-18-18v-255a18 18 0 0 1 18-18h146a18 18 0 0 1 18 18v255a18 18 0 0 1-18 18z m-121 73l25 72h46l24-72z m102-328h-109v91h109z m0 128h-109v91h109z m928 127h-55v36h55a18 18 0 0 1 15 8 18 18 0 0 1 2 16l-36 109a18 18 0 0 1-18 13h-72a18 18 0 0 1-18-13l-36-109a18 18 0 0 1 3-16 18 18 0 0 1 14-8h55v-36h-55a18 18 0 0 1-18-18v-255a18 18 0 0 1 18-18h146a18 18 0 0 1 18 18v255a18 18 0 0 1-18 18z m-120 73l24 72h46l25-72z m102-328h-109v91h109z m0 128h-109v91h109z" horiz-adv-x="1091" />

<glyph glyph-name="ico-search" unicode="&#xe81d;" d="M915-150l-286 285v45l-15 16a372 372 0 1 0 40 40l16-15h45l285-286-85-85z m-543 886a257 257 0 1 1 257-258 258 258 0 0 1-257 258z" horiz-adv-x="1000" />

<glyph glyph-name="ico-share" unicode="&#xe81e;" d="M750 143a145 145 0 0 1-98-38l-356 208a165 165 0 0 1 4 35 165 165 0 0 1-4 35l352 206a150 150 0 0 1 252 110 150 150 0 1 1-300 0 165 165 0 0 1 5-35l-353-206a151 151 0 1 1 0-220l356-209a142 142 0 0 1-4-33 146 146 0 1 1 146 147z" horiz-adv-x="900" />

<glyph glyph-name="ico-star" unicode="&#xe81f;" d="M497 135l256-155-68 292 226 195-298 25-116 275-116-274-298-26 226-196-68-291z" horiz-adv-x="1000" />

<glyph glyph-name="ico-star-outline" unicode="&#xe821;" d="M241-20l68 291-226 196 298 25 116 275 116-274 298-26-225-196 67-291-256 155-256-155z m256 232l156-94-41 177 137 119-181 16-71 167-70-167-182-15 138-120-41-177 156 94z" horiz-adv-x="1000" />

<glyph glyph-name="ico-thumbs" unicode="&#xe822;" d="M0-150h111a56 56 0 0 1 56 56v500a56 56 0 0 1-56 55h-111z m1102 396a110 110 0 0 1 9 44v60a111 111 0 0 1-111 111h-306l52 258a56 56 0 0 1-5 37 267 267 0 0 1-49 68l-25 26-356-356a111 111 0 0 1-33-79v-436a130 130 0 0 1 130-129h450a112 112 0 0 1 96 54z" horiz-adv-x="1111" />

<glyph glyph-name="ico-timelapse" unicode="&#xe823;" d="M712 562a299 299 0 0 1-212 88v-300l-212-212a300 300 0 1 1 424 424z m-212 288a500 500 0 1 1 500-500 500 500 0 0 1-500 500z m0-900a400 400 0 1 0 400 400 400 400 0 0 0-400-400z" horiz-adv-x="1000" />

<glyph glyph-name="ico-twitter" unicode="&#xe824;" d="M1231 732a526 526 0 0 0-146-40 251 251 0 0 1 111 139 504 504 0 0 0-160-61 252 252 0 0 1-436-172 260 260 0 0 1 5-58 714 714 0 0 0-520 264 252 252 0 0 1 78-337 249 249 0 0 0-114 31v-3a253 253 0 0 1 202-248 252 252 0 0 0-66-8 223 223 0 0 0-48 4 255 255 0 0 1 236-175 507 507 0 0 0-312-108 473 473 0 0 0-61 3 710 710 0 0 1 387-113 713 713 0 0 1 718 718c0 11 0 22-1 32a503 503 0 0 1 127 132z" horiz-adv-x="1231" />

<glyph glyph-name="ico-up" unicode="&#xe825;" d="M499-150l118 117-381 383 381 383-118 117-499-500z" horiz-adv-x="617" />

<glyph glyph-name="ico-wifi" unicode="&#xe826;" d="M0 557l142-128a968 968 0 0 0 1275 0l141 128a1183 1183 0 0 1-1558 0z m567-514l212-193 213 193a322 322 0 0 1-425 0z m-284 257l142-128a538 538 0 0 0 708 0l142 128a753 753 0 0 1-992 0z" horiz-adv-x="1558" />

<glyph glyph-name="ico-zoom" unicode="&#xe827;" d="M715 221h-45l-16 16a372 372 0 1 1-40-40l15-16v-46l286-285 85 85z m-343 0a257 257 0 1 0 257 257 257 257 0 0 0-257-257z m143 229h-115v-115h-57v115h-114v57h114v114h57v-114h115z" horiz-adv-x="1000" />

<glyph glyph-name="ico-zoom-in" unicode="&#xe828;" d="M715 221h-45l-16 16a372 372 0 1 1-40-40l15-16v-46l286-285 85 85z m-343 0a257 257 0 1 0 257 257 257 257 0 0 0-257-257z m143 229h-115v-115h-57v115h-114v57h114v114h57v-114h115z" horiz-adv-x="1000" />

<glyph glyph-name="ico-star-half-1" unicode="&#xe829;" d="M911 467l-298 26-116 274-116-274-298-26 226-196-68-291 256 155 256-155-68 292z m-414-255v385l71-167 181-16-137-119 41-177z" horiz-adv-x="1000" />

<glyph glyph-name="ico-pet-1" unicode="&#xe82b;" d="M786 226c-46 54-84 99-130 153a223 223 0 0 1-92 70 107 107 0 0 1-18 4 265 265 0 0 1-41 2 221 221 0 0 1-41-2 107 107 0 0 1-18-5 227 227 0 0 1-92-69c-46-54-84-100-130-154-69-69-154-145-138-252a165 165 0 0 1 122-122c39-8 162 23 292 23h9c131 0 254-30 292-23a166 166 0 0 1 123 122c16 108-69 184-138 253z" horiz-adv-x="1010" />
</font>
</defs>
</svg>
